<?xml version="1.0" standalone="no"?>
<!DOCTYPE svg PUBLIC "-//W3C//DTD SVG 1.1//EN" "http://www.w3.org/Graphics/SVG/1.1/DTD/svg11.dtd" >
<svg xmlns="http://www.w3.org/2000/svg">
<metadata>Generated by IcoMoon</metadata>
<defs>
<font id="theme-icons" horiz-adv-x="1024">
<font-face units-per-em="1024" ascent="960" descent="-64" />
<missing-glyph horiz-adv-x="1024" />
<glyph unicode="&#x20;" horiz-adv-x="512" d="" />
<glyph unicode="&#xe900;" glyph-name="arrow-right" horiz-adv-x="2048" d="M2024.48 457.446l-2.013 3.288-1.286 1.562-365.921 405.333c-7.895 8.746-21.385 9.435-30.131 1.54-7.774-7.018-9.182-18.456-3.854-27.054l2.314-3.077 333.756-369.704h-1914.667c-11.782 0-21.333-9.551-21.333-21.333 0-10.473 7.547-19.183 17.499-20.99l3.835-0.344h1914.624l-333.713-369.705c-7.895-8.746-7.206-22.235 1.54-30.131 7.774-7.018 19.296-7.253 27.306-1.076l2.825 2.616 367.231 406.932 1.275 1.929 1.743 3.787 0.826 3.145 0.32 2.816-0.146 3.707-0.505 2.652-1.524 4.105z" />
<glyph unicode="&#xe901;" glyph-name="minus" d="M24.381 472.381c-13.465 0-24.381-10.915-24.381-24.381 0-11.969 8.625-21.923 19.999-23.989l4.383-0.393h975.238c13.465 0 24.381 10.915 24.381 24.381 0 11.969-8.625 21.923-19.999 23.989l-4.383 0.393h-975.238z" />
<glyph unicode="&#xe902;" glyph-name="play" d="M97.555 935.582v-975.163c0-19.148 21.062-30.822 37.3-20.674l780.131 487.582c15.278 9.549 15.278 31.799 0 41.347l-780.131 487.582c-16.238 10.149-37.3-1.526-37.3-20.674zM146.314 891.651l709.773-443.651-709.773-443.602v887.252z" />
<glyph unicode="&#xe903;" glyph-name="search" d="M442.341 959.999c244.297 0 442.34-198.042 442.34-442.34 0-113.377-42.655-216.792-112.793-295.072l244.971-244.968c9.521-9.521 9.521-24.959 0-34.48-8.463-8.463-21.601-9.403-31.103-2.821l-3.377 2.821-244.968 244.971c-78.28-70.138-181.693-112.793-295.072-112.793-244.297 0-442.34 198.042-442.34 442.34s198.042 442.34 442.34 442.34zM442.341 911.237c-217.367 0-393.578-176.211-393.578-393.578s176.211-393.578 393.578-393.578c108.463 0 206.677 43.874 277.867 114.842 0.090 0.175 0.239 0.328 0.39 0.479l0.479 0.39c70.969 71.188 114.842 169.404 114.842 277.867 0 217.367-176.211 393.578-393.578 393.578z" />
<glyph unicode="&#xe904;" glyph-name="Buildings" d="M110.083 96.34c-6.569-0.103-11.819-5.629-11.727-12.356v-60.35c-0.067-3.274 1.163-6.437 3.406-8.767 2.234-2.339 5.299-3.657 8.497-3.657s6.263 1.318 8.505 3.657c2.234 2.33 3.464 5.493 3.406 8.767v60.35c0.041 3.291-1.221 6.463-3.496 8.793s-5.374 3.614-8.588 3.563v0zM110.083 261.762c-6.578-0.094-11.828-5.629-11.727-12.364v-60.341c-0.067-3.274 1.163-6.429 3.406-8.767 2.234-2.339 5.299-3.657 8.497-3.657s6.263 1.318 8.505 3.657c2.234 2.339 3.464 5.493 3.406 8.767v60.341c0.041 3.299-1.213 6.471-3.489 8.801-2.284 2.33-5.381 3.614-8.596 3.563v0zM110.083 423.548c-6.578-0.103-11.828-5.638-11.727-12.364v-60.341c-0.067-3.274 1.163-6.437 3.406-8.775 2.234-2.33 5.299-3.648 8.497-3.648s6.263 1.318 8.505 3.648c2.234 2.339 3.464 5.501 3.406 8.775v60.341c0.041 3.299-1.213 6.471-3.489 8.801-2.284 2.33-5.381 3.614-8.596 3.563v0zM110.083 581.656c-6.569-0.103-11.819-5.638-11.727-12.364v-60.341c-0.067-3.274 1.163-6.437 3.406-8.767 2.234-2.339 5.299-3.657 8.497-3.657s6.263 1.318 8.505 3.657c2.234 2.33 3.464 5.493 3.406 8.767v60.341c0.041 3.299-1.221 6.471-3.496 8.793-2.276 2.33-5.374 3.623-8.588 3.572v0zM110.083 739.893c-6.578-0.103-11.828-5.638-11.727-12.364v-60.459c-0.067-3.274 1.163-6.437 3.406-8.775 2.234-2.339 5.299-3.648 8.497-3.648s6.263 1.309 8.505 3.648c2.234 2.339 3.464 5.501 3.406 8.775v60.459c0.041 3.299-1.213 6.471-3.489 8.801-2.284 2.33-5.381 3.614-8.596 3.563v0zM614.494 185.724c-5.498-0.229-10.125-4.286-11.196-9.821-1.064-5.528 1.711-11.080 6.711-13.436l284.94-139.092c2.857-1.479 6.179-1.709 9.211-0.646s5.515 3.325 6.893 6.284c1.379 2.96 1.537 6.369 0.432 9.447s-3.372 5.57-6.287 6.922l-284.94 139.092c-1.795 0.901-3.77 1.335-5.764 1.25v0zM614.494 301.643c-5.498-0.229-10.132-4.294-11.196-9.821s1.711-11.089 6.711-13.444l284.94-139.092c2.857-1.429 6.155-1.633 9.153-0.561 3.007 1.071 5.465 3.325 6.836 6.267 1.37 2.933 1.528 6.317 0.448 9.38-1.071 3.061-3.305 5.553-6.188 6.922l-284.94 139.101c-1.795 0.901-3.77 1.335-5.764 1.25v0zM614.494 417.583c-5.498-0.229-10.132-4.294-11.196-9.821-1.071-5.528 1.703-11.089 6.703-13.444l284.94-139.21c2.866-1.454 6.171-1.667 9.178-0.603 3.015 1.071 5.489 3.333 6.861 6.276 1.37 2.951 1.537 6.335 0.448 9.405s-3.331 5.561-6.229 6.922l-284.94 139.227c-1.786 0.901-3.77 1.335-5.764 1.25v0zM614.494 533.394c-5.498-0.238-10.132-4.294-11.196-9.821-1.064-5.536 1.711-11.089 6.711-13.444l284.94-139.092c2.857-1.437 6.155-1.641 9.153-0.569 3.007 1.071 5.465 3.333 6.836 6.276 1.37 2.933 1.528 6.31 0.448 9.38-1.071 3.061-3.305 5.553-6.188 6.922l-284.94 139.099c-1.795 0.901-3.77 1.335-5.764 1.25v0.002zM306.039 959.988c-1.769 0.043-3.53-0.323-5.141-1.063l-293.87-135.189c-4.277-1.972-7.027-6.326-7.027-11.123v-864.42c0-6.735 5.332-12.194 11.911-12.194h998.276c6.562 0 11.885 5.434 11.902 12.143l1.91 531.138c0.016 4.694-2.6 8.979-6.72 11.020l-405.626 201.014v121.303c0 4.804-2.749 9.149-7.027 11.123l-293.976 135.188c-1.453 0.672-3.032 1.037-4.618 1.071l0.003-0.011zM305.781 934.444l282.069-129.721v-101.617l-88.888 44.039c-2.799 1.394-6.029 1.607-8.987 0.587l-282.792-97.399c-4.843-1.676-8.107-6.326-8.107-11.565v-678.406h-175.275v844.349l281.979 129.731zM481.887 719.213v-758.842h-258.977v669.633l258.977 89.209zM505.698 716.73l494.461-245.052-1.836-511.329h-492.653v756.36l0.028 0.022z" />
<glyph unicode="&#xe905;" glyph-name="plus" d="M511.999 960c11.969 0 21.923-8.625 23.989-19.999l0.393-4.383-0.049-463.238 467.67-0.393c11.374-2.064 19.999-12.019 19.999-23.989 0-13.465-10.915-24.381-24.381-24.381v0h-463.287l0.049-463.238c0-13.465-10.915-24.381-24.381-24.381-11.969 0-21.923 8.625-23.989 19.999l-0.393 4.383-0.049 463.238-467.571 0.393c-11.374 2.064-19.999 12.019-19.999 23.989 0 13.465 10.915 24.381 24.381 24.381v0h463.19l0.049 463.238c0 13.465 10.915 24.381 24.381 24.381z" />
<glyph unicode="&#xe906;" glyph-name="menu" horiz-adv-x="1792" d="M528 251.733c-13.549 0-24.533-10.984-24.533-24.533 0-12.044 8.679-22.060 20.124-24.138l4.41-0.396h1177.6c13.549 0 24.533 10.984 24.533 24.533 0 12.044-8.679 22.060-20.124 24.138l-4.41 0.396h-1177.6zM84.411 693.333c-12.451 0-22.545-10.984-22.545-24.533 0-12.044 7.975-22.060 18.492-24.138l4.053-0.396h1623.178c12.451 0 22.545 10.984 22.545 24.533 0 12.044-7.975 22.060-18.492 24.138l-4.053 0.396h-1623.178z" />
<glyph unicode="&#xe907;" glyph-name="phone" d="M241.437 957.023l-172.471-44.679c-45.217-11.856-74.454-55.617-68.1-101.928 63.677-453.498 420.051-809.869 873.475-873.536 46.38-6.401 90.161 22.874 101.949 68.126l44.738 172.384c11.321 43.498-10.514 88.815-51.603 107.076l-203.968 90.572-7.222 2.847c-36.433 12.622-77.274 1.177-101.775-29.291l-66.102-82.673-1.736 1.043c-97.742 61.221-181.282 142.478-245.15 238.301l-13.598 21.139 82.667 66.014c32.608 26.094 43.515 70.886 26.558 109.044l-90.567 203.954c-18.263 41.096-63.58 62.931-107.095 51.605zM303.971 885.622l90.567-203.954c7.96-17.911 2.842-38.929-12.456-51.171l-99.342-79.447c-9.465-7.569-11.932-20.942-5.793-31.392 74.44-126.696 180.016-232.273 306.713-306.711 10.449-6.139 23.822-3.671 31.391 5.793l79.452 99.347c12.241 15.223 33.261 20.324 51.179 12.379l203.949-90.564c19.274-8.566 29.52-29.83 24.206-50.248l-44.737-172.378c-5.552-21.313-26.194-35.115-48.034-32.101-431.82 60.633-771.259 400.069-831.901 831.944-2.991 21.793 10.816 42.458 32.099 48.039l172.427 44.667c20.446 5.321 41.709-4.925 50.279-24.204z" />
<glyph unicode="&#xe908;" glyph-name="complete" d="M511.999 960c66.389 0 122.144-45.365 136.72-106.446v0l1.472-7.315 85.138-0.016v-32.507h191.146c11.969 0 21.923-8.625 23.989-19.999l0.393-4.383v-828.952c0-11.969-8.625-21.923-19.999-23.989l-4.383-0.393h-828.952c-11.969 0-21.923 8.625-23.989 19.999l-0.393 4.383v828.952c0 11.969 8.625 21.923 19.999 23.989l4.383 0.393h191.098l0.049 32.507 85.089 0.016 1.52 7.315c13.968 58.536 65.757 102.638 128.479 106.211v0zM288.621 764.952h-166.717v-780.191h780.191v780.191h-166.766v-97.523h-446.659l-0.049 97.523zM221.378 716.191v-633.905h581.242v633.905h48.762v-682.666h-678.766v682.666h48.762zM644.973 514.986l34.137-34.819-183.2-179.608c-8.296-8.133-20.951-9.15-30.337-3.050l-3.8 3.050-100.305 98.338 34.137 34.819 83.237-81.534 166.131 162.803zM511.999 911.238c-50.736 0-91.672-40.134-91.672-89.397v0-24.381l-82.895 0.016v-81.286h349.135v81.286l-82.895-0.016v24.381c0 49.263-40.936 89.397-91.672 89.397zM560.761 821.841c0-26.93-21.832-48.762-48.762-48.762s-48.762 21.832-48.762 48.762c0 26.93 21.832 48.762 48.762 48.762s48.762-21.832 48.762-48.762z" />
<glyph unicode="&#xe909;" glyph-name="contact" d="M0 917.333h256v-256h-256v256zM768 917.333h256v-256h-256v256zM0 234.667h256v-256h-256v256zM768 234.667h256v-256h-256v256z" />
<glyph unicode="&#xe90a;" glyph-name="Industrial" d="M82.171 960c-5.448-1.039-9.759-6.353-9.66-11.911v-71.437c0-6.238 5.664-11.902 11.894-11.911h11.146c-15.34-301.629-31.645-603.298-46.826-904.884h-37.907c-6.229-0.581-11.354-6.785-10.773-13.023s6.778-11.371 13.007-10.789h998.888c6.279-0.117 12.060 5.615 12.060 11.911 0 6.287-5.781 11.993-12.060 11.902h-35.672v488.163h35.672c6.229 0 11.894 5.673 11.894 11.911v107.158c0 6.238-5.664 11.902-11.894 11.911h-39.393l-44.594 111.618c-1.777 4.402-6.404 7.484-11.146 7.433h-608.701c-3.97-0.747-7.475-3.663-8.92-7.442l-44.594-111.618h-3.712c-3.788 95.192-7.675 190.515-11.52 285.745h11.52c6.229 0 11.894 5.673 11.894 11.911v71.437c0 6.238-5.664 11.902-11.894 11.916h-168.709zM96.291 936.189h142.698v-47.624h-142.698v47.624zM119.331 864.752h96.246l11.52-285.745h-26.013c-5.448-1.039-9.759-6.353-9.66-11.911v-107.158c0-6.229 5.664-11.902 11.894-11.911h35.672v-154.784h-149.386l29.725 571.507zM318.518 674.245h590.117l38.272-95.249h-666.662l38.272 95.249zM215.212 555.184h784.839v-83.346h-784.839v83.346zM262.778 448.026h689.71v-488.163h-237.842v309.559c0 6.229-5.664 11.902-11.894 11.902h-192.491c-5.448-1.039-9.759-6.353-9.66-11.902v-309.559h-237.842c0.033 170.065 0 342.707 0 488.163h0.016zM343.792 376.589c-6.229-0.581-11.362-6.785-10.78-13.023s6.785-11.379 13.015-10.789h71.346c6.279-0.117 12.060 5.615 12.060 11.911 0 6.287-5.781 11.993-12.060 11.911l-73.581-0.009zM569.727 376.589c-6.229-0.581-11.362-6.785-10.78-13.023s6.785-11.379 13.007-10.789h71.346c6.279-0.117 12.060 5.615 12.060 11.911 0 6.287-5.781 11.993-12.060 11.911l-73.572-0.009zM795.661 376.589c-6.221-0.581-11.354-6.794-10.773-13.023s6.778-11.371 12.998-10.789h71.346c6.279-0.117 12.060 5.615 12.060 11.911 0 6.287-5.781 11.993-12.060 11.911l-73.572-0.009zM88.494 269.43h150.506v-107.158c-51.961 0.117-104.26-0.133-156.056 0.117l5.548 107.092 0.001-0.050zM524.395 257.521h166.478v-297.673h-166.478v297.673zM343.79 221.798c-6.229-0.581-11.362-6.785-10.78-13.023s6.785-11.379 13.015-10.789h71.346c6.279-0.117 12.060 5.615 12.060 11.911 0 6.287-5.781 11.993-12.060 11.902h-73.581zM795.659 221.798c-6.221-0.581-11.354-6.785-10.773-13.023 0.581-6.229 6.778-11.371 12.998-10.789h71.346c6.279-0.117 12.060 5.615 12.060 11.911 0 6.287-5.781 11.993-12.060 11.902h-73.572zM238.988 138.459v-178.596h-166.479l9.269 178.612c51.944 0.009 104.95 0 157.21 0v-0.017zM343.779 55.114c-6.229-0.581-11.362-6.785-10.78-13.023s6.785-11.379 13.015-10.789h71.346c6.279-0.117 12.060 5.615 12.060 11.911 0 6.287-5.781 11.993-12.060 11.902h-73.581zM795.648 55.114c-6.221-0.581-11.354-6.785-10.773-13.023 0.581-6.229 6.778-11.371 12.998-10.789h71.346c6.279-0.117 12.060 5.615 12.060 11.911 0 6.287-5.781 11.993-12.060 11.902h-73.572z" />
<glyph unicode="&#xe90b;" glyph-name="Infrastructure" d="M1012.886-41.731h-39.046c-31.304 44.015-287.84 419.437-311.571 927.102 0 0.047 0.023 0.077 0.023 0.124 0 0.055-0.031 0.101-0.031 0.163v63.207c0 6.149-4.977 11.134-11.134 11.134-6.149 0-11.134-4.984-11.134-11.134v-52.235h-255.978l0.008 52.235c0 6.149-4.984 11.134-11.134 11.134s-11.134-4.984-11.134-11.134v-63.556c-23.734-507.685-280.306-883.097-311.571-927.042h-39.051c-6.149 0-11.134-4.977-11.134-11.134 0-6.149 4.984-11.134 11.134-11.134h1001.732c6.149 0 11.134 4.977 11.134 11.134 0 6.149-4.984 11.134-11.134 11.134l0.019 0.003zM384.041 592.462c36.204 20.156 81.311 31.312 127.989 31.312s91.786-11.164 127.981-31.328v-134.355c-17.764 29.448-44.557 48.252-74.488 48.252h-106.979c-29.937 0-56.739-18.804-74.504-48.261v134.379zM639.979 322.193c-37.421 18.338-82.111 28.339-127.957 28.339-45.853 0-90.536-10-127.966-28.323v51.164c0 60.023 34.106 110.729 74.48 110.729h106.979c40.371 0 74.464-50.707 74.464-110.729v-51.18zM640.003 26.681c-37.438 18.346-82.126 28.363-127.989 28.363-45.837 0-90.528-10-127.966-28.339v51.172c0 60.007 34.115 110.705 74.488 110.705h106.979c40.379 0 74.488-50.699 74.488-110.705v-51.196zM565.515 210.842h-106.979c-29.937 0-56.739-18.796-74.501-48.238v134.355c36.204 20.164 81.311 31.312 127.989 31.312 46.663 0 91.762-11.149 127.981-31.312v-134.348c-17.764 29.44-44.557 48.23-74.488 48.23h-0.002zM640.003 617.697c-37.421 18.355-82.118 28.355-127.981 28.355-45.853 0-90.543-10-127.966-28.339v51.172c0 60.014 34.115 110.714 74.488 110.714h106.963c40.379 0 74.488-50.699 74.488-110.714l0.008-51.188zM384.024 1.471c36.219 20.156 81.327 31.305 127.981 31.305 46.676 0 91.786-11.164 127.989-31.312v-43.198h-255.978l0.008 43.205zM662.243 8.078v671.938c12.283-72.477 28.587-141.149 47.275-205.336 0-0.015-0.008-0.031-0.008-0.055l-0.008-516.351h-47.258v49.803zM731.768 403.544c18.687-55.954 38.782-107.903 59.107-155.14v-290.146h-59.107v445.285zM813.136 198.567c20.482-44.208 40.591-83.47 59.085-117.197v-123.106h-59.085v240.303zM894.487 41.922c22.414-38.533 40.876-66.925 52.259-83.665h-52.259v83.665zM639.979 874.357v-120.737c-17.764 29.44-44.557 48.23-74.488 48.23h-106.963c-29.944 0-56.747-18.804-74.51-48.261l-0.008 120.769 255.969-0.002zM361.76-41.734h-47.275v516.371c0 0.023-0.008 0.047-0.008 0.062 18.641 64.030 35.007 132.413 47.282 204.7v-721.132zM233.118 248.391c20.327 47.229 40.427 99.106 59.107 155.054v-445.176h-59.107v290.122zM210.859-41.734h-59.068v123.12c18.494 33.727 38.594 72.912 59.068 117.111v-240.231zM129.532 41.939v-83.673h-52.275c11.381 16.739 29.859 45.14 52.275 83.673z" />
<glyph unicode="&#xe90c;" glyph-name="wallet" d="M822.302 959.998c11.969 0 21.923-8.625 23.988-19.999l0.393-4.383-0.031-241.566 64.308-0.026c11.969 0 21.923-8.625 23.988-19.999l0.393-4.383-0.040-241.588 64.316-0.005c11.969 0 21.923-8.625 23.988-19.999l0.393-4.383v-177.316c0-13.465-10.915-24.38-24.38-24.38v0l-64.316 0.022 0.040-241.614c0-11.969-8.625-21.923-19.999-23.988l-4.383-0.393h-753.591c-83.921 0-152.49 65.674-157.118 148.437l-0.249 8.93v664.933c0 59.825 46.482 108.801 105.299 112.778l7.739 0.261 64.259 0.009 0.018 64.268c0 11.969 8.625 21.923 19.999 23.988l4.383 0.393h620.604zM48.764 665.38v-572.011c0-57.379 44.482-104.356 100.849-108.333l7.757-0.273 729.17 0.049v217.184l-86.401-0.022c-56.415 0-103.644 41.484-111.85 97.112l-0.874 7.671-0.314 8.256c0 62.426 50.612 113.038 113.038 113.038v0l86.401 0.005v217.234l-63.739-0.022c-0.166-0.003-0.331-0.005-0.497-0.005l-0.519 0.075-708.743-0.075c-3.168 0-6.305 0.13-9.408 0.386l9.408-0.386c-3.699 0-7.357 0.177-10.965 0.525-2.557 0.246-5.080 0.576-7.576 0.989-0.677 0.112-1.344 0.229-2.009 0.351-2.323 0.426-4.627 0.926-6.903 1.494-0.71 0.177-1.387 0.353-2.063 0.536-2.734 0.736-5.467 1.587-8.154 2.537-0.645 0.229-1.266 0.454-1.886 0.686-2.094 0.782-4.175 1.632-6.224 2.541-0.851 0.377-1.699 0.767-2.543 1.166-1.891 0.896-3.752 1.841-5.581 2.835-0.651 0.354-1.299 0.714-1.943 1.081-2.513 1.431-4.966 2.955-7.353 4.568l-1.078 0.81zM975.188 379.295l-175.050-0.005c-33.278 0-60.654-25.296-63.961-56.894v0l-0.335-6.398 0.234-6.282c2.694-33.186 30.534-58.979 64.063-58.979v0l175.050 0.022v128.536zM177.299 822.587l-64.259-0.009c-33.278 0-60.654-25.296-63.945-57.705l-0.331-6.554 0.331-6.59c3.072-30.249 27.124-54.302 57.374-57.374l6.571-0.331 64.259 0.026v128.536zM797.89 911.236h-571.829v-217.184h571.829v217.184z" />
<glyph unicode="&#xe90d;" glyph-name="window" d="M512 960c242.231 0 438.857-191.442 438.857-427.928v0-571.691c0-13.465-10.915-24.381-24.381-24.381v0h-828.952c-13.465 0-24.381 10.915-24.381 24.381v0 571.691c0 236.486 196.626 427.928 438.857 427.928zM512 911.238c-215.587 0-390.095-169.906-390.095-379.166v0-547.311h780.191v547.311c0 205.311-167.985 372.741-377.937 378.985v0zM183.873 20.072c-13.465 0-24.381 10.915-24.381 24.381v0 487.619c0 190.054 157.967 343.856 352.507 343.856v0 0l11.864-0.191c189.059-6.102 340.643-157.489 340.643-343.664v0-487.619c0-13.465-10.915-24.381-24.381-24.381v0zM208.213 68.877l279.406 0.049v152.966h-279.406v-153.015zM815.738 221.891h-279.357v-152.966l279.357-0.049v153.015zM815.738 270.653v237.080h-279.357v-237.080h279.357zM208.213 270.653h279.406v237.080h-279.406v-237.080zM814.722 556.474c-5.431 64.425-32.176 123.025-73.391 169.097l-170.231-169.075zM280.675 723.319c-40.083-45.722-66.054-103.465-71.397-166.845l242.696 0.022zM487.656 826.232c-65.342-5.032-124.83-30.144-171.959-68.965l171.922-167.419zM536.393 826.229l-0.011-235.503 169.546 168.479c-46.735 37.709-105.305 62.067-169.534 67.024z" />
<glyph unicode="&#xe90e;" glyph-name="microwave" d="M935.758 874.665c48.784 0 88.242-39.839 88.242-88.889v0-585.481c0-49.050-39.458-88.889-88.242-88.889v0l-45.603 0.038 0.027-68.779c0-11.782-9.551-21.333-21.333-21.333-10.473 0-19.183 7.547-20.99 17.499l-0.344 3.835-0.027 68.779h-671.019l0.016-68.779c0-11.782-9.551-21.333-21.333-21.333-10.473 0-19.183 7.547-20.99 17.499l-0.344 3.835-0.016 68.779-45.56-0.038c-46.663 0-84.794 36.45-88.021 82.546l-0.221 6.343v585.481c0 49.050 39.458 88.889 88.242 88.889v0zM935.758 831.999h-847.515c-25.128 0-45.576-20.645-45.576-46.222v0-585.481c0-25.577 20.448-46.222 45.576-46.222v0h847.515c25.128 0 45.576 20.645 45.576 46.222v0 585.481c0 25.577-20.448 46.222-45.576 46.222v0zM813.091 446.813c42.622 0 77.091-34.802 77.091-77.63s-34.469-77.63-77.091-77.63c-42.622 0-77.091 34.802-77.091 77.63s34.469 77.63 77.091 77.63zM623.515 694.517c11.782 0 21.333-9.551 21.333-21.333v0-360.296c0-11.782-9.551-21.333-21.333-21.333v0h-468.364c-11.782 0-21.333 9.551-21.333 21.333v0 360.296c0 11.782 9.551 21.333 21.333 21.333v0zM813.091 404.147c-18.966 0-34.424-15.608-34.424-34.963s15.458-34.963 34.424-34.963c18.966 0 34.424 15.608 34.424 34.963s-15.458 34.963-34.424 34.963zM602.155 651.86h-425.685v-317.611h425.685v317.611zM813.091 694.517c42.622 0 77.091-34.802 77.091-77.63s-34.469-77.63-77.091-77.63c-42.622 0-77.091 34.802-77.091 77.63s34.469 77.63 77.091 77.63zM813.091 651.851c-18.966 0-34.424-15.608-34.424-34.963s15.458-34.963 34.424-34.963c18.966 0 34.424 15.608 34.424 34.963s-15.458 34.963-34.424 34.963z" />
<glyph unicode="&#xe90f;" glyph-name="bathtub" d="M975.239 383.722c13.465 0 24.381-10.915 24.381-24.381v0-177.317c0-86.886-70.146-157.368-156.735-157.368v0l-41.824 0.040 0.027-64.317c0-13.465-10.915-24.381-24.381-24.381-11.969 0-21.923 8.625-23.989 19.999l-0.393 4.383-0.027 64.317h-480.646l0.021-64.317c0-13.465-10.915-24.381-24.381-24.381-11.969 0-21.923 8.625-23.989 19.999l-0.393 4.383-0.021 64.317-41.775-0.040c-83.602 0-151.878 65.705-156.487 148.44l-0.248 8.928v177.317c0 13.465 10.915 24.381 24.381 24.381v0zM950.857 334.969h-877.714v-152.944c0-57.399 44.253-104.359 100.265-108.334v0l7.707-0.272h661.769c59.606 0 107.973 48.599 107.973 108.606v0 152.944zM644.354 959.999c83.602 0 151.878-65.705 156.487-148.44l0.248-8.928v-332.467c0-13.465-10.915-24.381-24.381-24.381-11.969 0-21.923 8.625-23.989 19.999l-0.393 4.383v332.467c0 60.008-48.367 108.606-107.973 108.606-57.014 0-103.745-44.464-107.702-100.847l-0.271-7.759 0.037-21.904c74.863-11.925 132.083-76.911 132.318-155.339 0.040-13.494-10.887-24.454-24.381-24.454v0h-264.707c-13.494 0-24.421 10.96-24.381 24.454 0.232 77.923 56.879 143.050 132.357 155.277l-0.002 21.967c0 86.886 70.146 157.368 156.735 157.368zM512 733.921l-0.342 0.066-6.175-0.283c-43.511-2.747-79.865-31.258-94.518-70.346l-2.637-7.954-1.459-5.677h210.213l-1.374 5.574c-12.366 42.946-50.278 74.951-96.078 78.327v0l-7.177 0.298c-0.151-0.002-0.302-0.005-0.453-0.005zM472.527 536.657c0-26.93-21.832-48.762-48.762-48.762s-48.762 21.832-48.762 48.762c0 26.93 21.832 48.762 48.762 48.762s48.762-21.832 48.762-48.762zM560.762 470.163c0-26.93-21.832-48.762-48.762-48.762s-48.762 21.832-48.762 48.762c0 26.93 21.832 48.762 48.762 48.762s48.762-21.832 48.762-48.762zM648.998 536.657c0-26.93-21.832-48.762-48.762-48.762s-48.762 21.832-48.762 48.762c0 26.93 21.832 48.762 48.762 48.762s48.762-21.832 48.762-48.762z" />
<glyph unicode="&#xe910;" glyph-name="close" d="M1014.096 950.096c11.737-11.737 13.042-29.958 3.913-43.135l-3.913-4.684-454.325-454.229 458.237-459.008c9.129-13.177 7.826-31.398-3.913-43.135-13.205-13.205-34.614-13.205-47.819 0v0l-454.325 454.325-454.229-454.325c-13.205-13.205-34.614-13.205-47.819 0-11.737 11.737-13.042 29.958-3.913 43.135l3.913 4.684 454.229 454.325-458.142 458.913c-9.129 13.177-7.826 31.398 3.913 43.135 13.205 13.205 34.614 13.205 47.819 0v0l454.229-454.229 454.325 454.229c13.205 13.205 34.614 13.205 47.819 0z" />
<glyph unicode="&#xe911;" glyph-name="bill" d="M926.462 960c13.465 0 24.38-10.915 24.38-24.38v0-975.202c0-19.019-20.807-30.713-37.054-20.827v0l-125.512 76.413-125.448-76.413c-6.488-3.947-14.358-4.606-21.307-1.974v0l-4.040 1.974-125.529 76.413-125.431-76.413c-6.488-3.947-14.358-4.606-21.308-1.974v0l-4.040 1.974-125.496 76.413-125.464-76.413c-15.086-9.18-34.105 0.248-36.745 16.869v0l-0.31 3.958v975.202c0 13.465 10.915 24.38 24.38 24.38v0zM902.082 911.239h-780.162v-907.426l101.1 61.499c6.488 3.947 14.358 4.606 21.308 1.974v0l4.040-1.974 125.448-76.323 125.512 76.323c6.488 3.947 14.358 4.606 21.308 1.974v0l4.040-1.974 125.464-76.323 125.496 76.323c6.488 3.947 14.358 4.606 21.307 1.974v0l4.040-1.974 101.1-61.499v907.426zM546.539 253.818c13.465 0 24.38-10.915 24.38-24.38 0-11.969-8.625-21.923-19.998-23.988l-4.383-0.393h-276.308c-13.465 0-24.38 10.915-24.38 24.38 0 11.969 8.625 21.923 19.998 23.988l4.383 0.393h276.308zM753.769 253.818c13.465 0 24.38-10.915 24.38-24.38 0-11.969-8.625-21.923-19.998-23.988l-4.383-0.393h-69.076c-13.465 0-24.38 10.915-24.38 24.38 0 11.969 8.625 21.923 19.998 23.988l4.383 0.393h69.076zM546.539 388.329c13.465 0 24.38-10.915 24.38-24.38 0-11.969-8.625-21.923-19.998-23.988l-4.383-0.393h-276.308c-13.465 0-24.38 10.915-24.38 24.38 0 11.969 8.625 21.923 19.998 23.988l4.383 0.393h276.308zM753.769 388.329c13.465 0 24.38-10.915 24.38-24.38 0-11.969-8.625-21.923-19.998-23.988l-4.383-0.393h-69.076c-13.465 0-24.38 10.915-24.38 24.38 0 11.969 8.625 21.923 19.998 23.988l4.383 0.393h69.076zM512 791.862c89.621 0 162.534-70.989 162.534-158.89s-72.913-158.89-162.534-158.89c-89.621 0-162.534 70.989-162.534 158.89s72.913 158.89 162.534 158.89zM512 743.101c-62.979 0-113.774-49.455-113.774-110.131s50.795-110.131 113.774-110.131c62.979 0 113.774 49.455 113.774 110.131s-50.795 110.131-113.774 110.131z" />
<glyph unicode="&#xe912;" glyph-name="arrow-left" horiz-adv-x="2048" d="M23.532 436.113l2.013 3.288 1.286 1.562 365.921 405.333c7.895 8.746 21.385 9.435 30.131 1.54 7.774-7.018 9.182-18.456 3.854-27.054l-2.314-3.077-333.756-369.704h1914.667c11.782 0 21.333-9.551 21.333-21.333 0-10.473-7.547-19.183-17.499-20.99l-3.835-0.344h-1914.624l333.713-369.705c7.895-8.746 7.206-22.235-1.54-30.131-7.774-7.018-19.296-7.253-27.306-1.076l-2.825 2.616-367.231 406.932-1.275 1.929-1.743 3.787-0.826 3.145-0.32 2.816 0.146 3.707 0.505 2.652 1.524 4.105z" />
<glyph unicode="&#xe913;" glyph-name="crane" d="M378.435 959.999c10.928 0 20.017-7.875 21.903-18.26l0.359-4.002v-112.818l602.629-43.064c10.354-0.74 18.636-8.48 20.349-18.394l0.326-3.81v-133.565c0-10.928-7.875-20.017-18.26-21.903l-4.002-0.359-601.042 0.045v-623.348h111.305c12.294 0 22.26-9.966 22.26-22.26 0-10.928-7.875-20.017-18.26-21.903l-4.002-0.359h-445.217c-12.294 0-22.26 9.966-22.26 22.26 0 10.928 7.875 20.017 18.26 21.903l4.002 0.359h111.305v623.303h-155.825c-10.928 0-20.017 7.875-21.903 18.26l-0.359 4.002v133.565c0 8.938 5.323 16.872 13.292 20.376l3.57 1.22 161.224 40.333v116.157c0 10.928 7.875 20.017 18.26 21.903l4.002 0.359h178.087zM356.174 915.477h-133.565v-934.955h133.565v934.955zM868.172 514.782c10.928 0 20.017-7.875 21.903-18.26l0.359-4.002v-200.347h111.305c10.928 0 20.017-7.875 21.903-18.26l0.359-4.002v-178.087c0-12.294-9.966-22.26-22.26-22.26v0h-267.13c-12.294 0-22.26 9.966-22.26 22.26v0 178.087c0 12.294 9.966 22.26 22.26 22.26v0h111.305v200.347c0 12.294 9.966 22.26 22.26 22.26zM979.477 247.652h-222.608v-133.565h222.608v133.565zM178.087 775.68l-133.565-33.391v-93.941h133.565v127.332zM400.695 780.31v-131.917l578.782-0.045v90.602l-578.782 41.36z" />
<glyph unicode="&#xe914;" glyph-name="money-time" d="M804.57 439.874c119.459 0 219.428-49.985 219.428-121.905v0-260.064c0-71.922-99.97-121.905-219.428-121.905-115.604 0-212.959 46.809-219.119 115.014l-0.31 6.89v260.064l0.31 6.89c6.16 68.202 103.513 115.014 219.119 115.014zM804.57 66.034c-68.258 0-130.153 16.319-170.671 43.726l0.005-51.853c0-35.803 74.683-73.143 170.666-73.143 92.291 0 164.89 34.522 170.338 69.007l0.328 4.136 0.053 51.885c-40.518-27.426-102.434-43.758-170.719-43.758zM446.983 960.001c246.856 0 446.984-200.128 446.984-446.984 0-13.465-10.915-24.381-24.381-24.381s-24.381 10.915-24.381 24.381c0 219.925-178.297 398.221-398.221 398.221s-398.221-178.297-398.221-398.221c0-219.925 178.297-398.221 398.221-398.221 20.713 0 41.184 1.573 61.303 4.687 13.306 2.059 25.763-7.058 27.824-20.365s-7.058-25.763-20.365-27.824c-22.589-3.496-45.553-5.261-68.761-5.261-246.856 0-446.984 200.128-446.984 446.984s200.128 446.984 446.984 446.984zM975.29 239.823c-40.517-27.426-102.434-43.759-170.72-43.759-68.258 0-130.154 16.32-170.672 43.726l0.005-51.854c0-35.803 74.683-73.143 170.666-73.143 92.291 0 164.89 34.522 170.338 69.007l0.328 4.136zM804.57 391.112c-95.984 0-170.666-37.342-170.666-73.143s74.682-73.143 170.666-73.143c95.984 0 170.666 37.342 170.666 73.143s-74.682 73.143-170.666 73.143zM446.983 764.953c11.969 0 21.923-8.625 23.989-19.999l0.393-4.383v-227.555c0-11.969-8.625-21.923-19.999-23.989l-4.383-0.393h-243.809c-13.465 0-24.381 10.915-24.381 24.381 0 11.969 8.625 21.923 19.999 23.989l4.383 0.393 219.396 0.032 0.032 203.141c0 11.969 8.625 21.923 19.999 23.989l4.383 0.393z" />
<glyph unicode="&#xe915;" glyph-name="line-nav" d="M490.667 960c10.473 0 19.183-7.245 20.99-16.799l0.344-3.681v-983.040c0-11.311-9.551-20.48-21.333-20.48-10.473 0-19.183 7.245-20.99 16.799l-0.344 3.681v983.040c0 11.311 9.551 20.48 21.333 20.48z" />
<glyph unicode="&#xe916;" glyph-name="line-titles" horiz-adv-x="2048" d="M1989.246 448c8.885 0 16.087-9.551 16.087-21.333 0-10.473-5.691-19.183-13.196-20.99l-2.892-0.344h-1930.492c-8.885 0-16.087 9.551-16.087 21.333 0 10.473 5.691 19.183 13.196 20.99l2.892 0.344h1930.492z" />
<glyph unicode="&#xe917;" glyph-name="block" d="M280.273 892.224c10.473 0 19.183-7.547 20.99-17.499l0.344-3.835-0.041-69.248h420.821l0.001 69.248c0 10.473 7.547 19.183 17.499 20.99l3.835 0.344h92.69c10.473 0 19.183-7.547 20.99-17.499l0.344-3.835-0.019-69.248 102.272-0.038c10.473 0 19.183-7.547 20.99-17.499l0.344-3.835v-362.478c0-11.782-9.551-21.333-21.333-21.333v0l-99.328 0.020v-350.037h68.431c11.782 0 21.333-9.551 21.333-21.333 0-10.473-7.547-19.183-17.499-20.99l-3.835-0.344h-278.069c-11.782 0-21.333 9.551-21.333 21.333 0 10.473 7.547 19.183 17.499 20.99l3.835 0.344h74.299v350.037h-420.821v-350.037h68.454c11.782 0 21.333-9.551 21.333-21.333 0-10.473-7.547-19.183-17.499-20.99l-3.835-0.344h-278.069c-11.782 0-21.333 9.551-21.333 21.333 0 10.473 7.547 19.183 17.499 20.99l3.835 0.344h74.277v350.037l-105.173-0.020c-10.473 0-19.183 7.547-20.99 17.499l-0.344 3.835v362.478c0 11.782 9.551 21.333 21.333 21.333v0l102.229 0.038 0.024 69.248c0 10.473 7.547 19.183 17.499 20.99l3.835 0.344h92.69zM261.843 396.48h-50.005v-350.037h50.005v350.037zM818.003 396.48h-50.005v-350.037h50.005v350.037zM85.331 533.227v-94.080h96.256l-96.256 94.080zM85.331 714.475v-121.6l157.312-153.728h124.331l-281.643 275.328zM225.192 758.976h-124.331l327.168-319.829h124.288l-327.125 319.829zM286.248 758.976l327.125-319.829h124.331l-327.125 319.829h-124.331zM595.923 758.976h-124.288l327.125-319.829h124.288l-327.125 319.829zM781.309 758.976h-124.331l281.685-275.371v121.557l-157.355 153.813zM842.365 758.976l96.299-94.165v94.165h-96.299zM258.899 849.557h-50.005v-47.915h50.005v47.915zM815.059 849.557h-50.005v-47.915h50.005v47.915z" />
<glyph unicode="&#xe918;" glyph-name="miner" d="M512 938.667c149.837 0 271.921-118.827 277.158-267.386l0.175-9.947h21.333c11.782 0 21.333-9.551 21.333-21.333 0-10.473-7.547-19.183-17.499-20.99l-3.835-0.344-43.208-0.021c-5.153-101.14-46.684-185.594-106.094-238.594l-0.032-88.723 251.858-110.226c51.637-22.592 85.915-72.188 89.214-127.96l0.261-8.854v-65.621c0-11.782-9.551-21.333-21.333-21.333v0l-468.893 0.004c-0.146-0.003-0.293-0.004-0.44-0.004l-0.427 0.043-468.907-0.043c-10.473 0-19.183 7.547-20.99 17.499l-0.344 3.835v65.629c0.021 59.359 35.196 113.070 89.58 136.805v0l251.753 110.227 0.011 88.686c-59.433 52.998-100.982 137.468-106.136 238.632l-43.208 0.021c-11.782 0-21.333 9.551-21.333 21.333 0 10.473 7.547 19.183 17.499 20.99l3.835 0.344h21.333c0 153.167 124.166 277.333 277.333 277.333zM642.432 252.971l-7.321-4.758c-75.392-46.505-170.83-46.505-246.222 0v0l-7.363 4.758-253.525-110.966c-36.431-15.9-60.791-50.613-63.706-89.82v0l-0.294-7.897v-44.288h426.667v85.333c0 11.782 9.551 21.333 21.333 21.333 10.473 0 19.183-7.547 20.99-17.499l0.344-3.835v-85.333h426.667v44.288c0 39.73-22.049 75.928-56.795 94.293v0l-7.116 3.431-253.657 110.958zM512 320c-37.405 0-73.695 10.313-106.628 29.147l-0.036-60.796c64.525-43.145 148.854-43.135 213.37 0.028l-0.036 60.791c-32.944-18.85-69.249-29.171-106.67-29.171zM724.735 618.653h-425.47c5.104-90.399 42.397-164.239 94.164-208.988 3.016-1.389 5.587-3.529 7.57-6.139 33.1-26.252 71.549-40.859 111.001-40.859s77.901 14.608 111.044 40.778c1.94 2.692 4.51 4.832 7.471 6.304 51.822 44.665 89.115 118.506 94.219 208.904zM533.359 895.041l-0.026-41.708c0-10.473-7.547-19.183-17.499-20.99l-3.835-0.344c-10.473 0-19.183 7.547-20.99 17.499l-0.344 3.835 0.018 41.712c-116.525-10.492-208.493-106.162-213.165-224.273l-0.186-9.438 174.319-0.030c-2.365 6.681-3.652 13.872-3.652 21.363 0 35.346 28.654 64 64 64s64-28.654 64-64c0-7.491-1.287-14.682-3.652-21.363l174.319 0.030c0 122.403-93.714 222.917-213.307 233.708zM512 704c-11.782 0-21.333-9.551-21.333-21.333s9.551-21.333 21.333-21.333c11.782 0 21.333 9.551 21.333 21.333s-9.551 21.333-21.333 21.333z" />
<glyph unicode="&#xe919;" glyph-name="plant-ground" d="M512 938.667c10.473 0 19.183-7.547 20.99-17.499l0.344-3.835-0.003-348.363c38.17 51.346 98.465 84.519 166.403 84.519v0h31.289c11.782 0 21.333-9.551 21.333-21.333v0-128.594c0-118.186-93.471-214.225-209.067-214.225v0l-9.956 0.028-0.006-118.449c0.472 0.033 0.944 0.063 1.416 0.091l8.546 0.253c72.932 0 133.242-54.474 144.575-125.639l0.349-2.955h293.12c10.473 0 19.183-7.547 20.99-17.499l0.344-3.835c0-10.473-7.547-19.183-17.499-20.99l-3.835-0.344h-312.889c-11.782 0-21.333 9.551-21.333 21.333 0 59.367-46.613 107.261-103.822 107.261-42.375 0-80.046-26.571-95.961-66.627-4.963-12.492-19.83-17.062-30.807-10.424l-3.163 2.331c-7.616 6.746-16.824 10.423-26.514 10.423-22.647 0-41.244-19.108-41.244-42.964 0-10.473-7.547-19.183-17.499-20.99l-3.835-0.344h-281.6c-11.782 0-21.333 9.551-21.333 21.333 0 10.473 7.547 19.183 17.499 20.99l3.835 0.344h262.955l0.854 3.352c9.794 33.241 38.859 58.055 74.090 60.71l6.279 0.236c10.195 0 20.088-1.915 29.336-5.516l2.678-1.181c16.986 27.928 42.235 49.284 71.802 60.979l0.006 256.717-9.956-0.031c-112.554 0-204.132 91.051-208.874 204.942l-0.193 9.283v128.594c0 11.782 9.551 21.333 21.333 21.333v0h31.289c67.975 0 128.3-33.21 166.466-84.604l-0.066 219.854c0 11.782 9.551 21.333 21.333 21.333zM709.675 610.859l-9.941-0.036c-91.769 0-166.4-76.682-166.4-171.558v0-107.233l9.956-0.028c88.988 0 161.861 72.105 166.196 162.985v0l0.204 8.573-0.014 107.297zM324.267 739.417l-9.984 0.039 0.028-107.3c0-94.876 74.631-171.558 166.4-171.558v0l9.956 0.031v107.23c0 92.001-70.177 166.894-158.106 171.349v0l-8.294 0.21z" />
<glyph unicode="&#xe91a;" glyph-name="baloon" d="M744.831 897.078c-62.76 39.036-143.202 41.274-208.248 5.795-61.428-33.686-111.446-119.893-122.096-210.446-11.267-82.51 17.497-165.419 78.164-225.297-27.196-33.505-34.993-59.946-23.582-80.411s52.3-36.221 89.956-42.379c8.939-39.662 6.276-70.451-7.988-86.75s-38.036-11.772-79.496-6.339c-48.877 6.52-109.734 14.67-169.832-18.111-51.201-28.914-81.090-82.694-77.404-139.271 0-55.419 25.484-107.396 58.576-123.877 2.732-1.255 5.716-1.934 8.748-1.992 7.12-0.014 13.651 3.76 16.926 9.78 2.33 4.273 2.777 9.254 1.242 13.842s-4.924 8.405-9.42 10.608c-17.687 8.693-38.036 46.544-38.036 92.002-3.494 43.785 19.052 85.747 58.386 108.664 49.067 25.898 100.606 19.016 146.059 13.040s87.483-11.591 114.109 19.016c20.54 23.725 26.625 60.671 19.018 107.215h4.755c40.318 1.811 54.772 16.119 59.907 27.709 5.394 20.288 4.402 41.64-2.853 61.395 2.472 1.087 4.945 1.811 7.227 3.079 88.171 43.24 147.623 125.78 158.231 219.683 23.012 150.319-41.65 216.966-82.348 243.045zM628.821 384.546c-3.233-3.622-23.582-8.693-57.054-4.89-40.128 4.709-64.662 18.111-68.655 24.631-1.902 3.441 0 15.937 19.018 39.119 23.77-15.778 52.043-24.247 81.017-24.268 7.702 0.022 15.392 0.567 23.012 1.63 4.022-11.678 4.936-24.124 2.663-36.221zM789.524 659.647c-9.020-82.12-60.648-154.472-137.501-192.698-39.225-19.816-87.307-13.938-120.004 14.67v0c-60.369 52.523-90.040 129.786-79.496 207.005 10.080 88.561 59.336 159.012 102.888 182.918 24.631 13.321 52.502 20.253 80.827 20.103 30.975 0.294 61.349-8.15 87.293-24.268 57.435-37.308 80.827-111.2 65.993-208.273v0.543z" />
<glyph unicode="&#xe91b;" glyph-name="pet" d="M97.932 614.105c45.673 40.908 124.097 25.222 179.197-32.052 36.252-37.683 55.017-85.577 52.286-127.234 33.613 53.177 95.71 87.72 173.788 90.521v0l10.334 0.184c82.716 0 148.701-35.027 183.912-90.232-0.991 40.354 20.017 85.691 57.985 120.044v0l6.65 5.757c58.367 48.319 135.115 55.651 175.304 10.797 41.665-46.502 23.624-126.416-35.389-179.805-59.060-53.43-140.202-63.126-181.954-16.548l1.878-1.842c1.225-6.289 2.138-12.712 2.727-19.256v0l0.555-8.913 1.104-0.411c66.59-26.756 112.753-91.984 116.205-167.102v0l0.208-9.060c0-104.173-81.561-188.952-182.589-188.952-31.566 0-51.871 7.052-85.74 25.13v0l-12.84 6.741c-19.459 9.814-31.568 13.363-48.016 13.363-18.504 0-31.517-4.492-55.68-17.342v0l-14.954-7.859c-28.265-14.321-47.552-20.034-75.962-20.034-101.028 0-182.589 84.78-182.589 188.952 0 78.897 47.159 148.336 116.413 176.162v0l1.059 0.411c0.459 10.284 1.704 20.289 3.692 29.972l-1.978-2.286c-44.807-46.575-126.895-31.868-183.963 27.452-56.709 58.946-70.627 142.879-26.41 188.841v0zM513.537 502.857c-102.255 0-169.242-61.799-169.242-146.286v0l0.135-5.21c0.487-9.853-5.845-18.754-15.311-21.527-59.792-17.511-102.101-74.751-102.101-140.883 0-80.97 62.836-146.286 139.923-146.286 22.904 0 37.447 5.051 65.65 20.104v0l14.788 7.734c24.534 12.274 42.053 17.396 66.158 17.396 27.119 0 45.901-6.483 75.714-22.338v0l14.158-7.447c22.612-11.459 36.365-15.45 56.725-15.45 77.087 0 139.923 65.316 139.923 146.286 0 66.132-42.309 123.372-102.101 140.883-9.467 2.772-15.798 11.674-15.311 21.527v0l0.135 5.21c0 84.487-66.987 146.286-169.242 146.286zM905.611 563.418c-23.392 26.108-78.128 19.567-121.552-19.721-43.464-39.326-55.698-93.501-32.24-119.686 23.406-26.112 78.129-19.572 121.555 19.714 43.472 39.328 55.702 93.503 32.236 119.693zM246.381 552.472c-42.136 43.799-97.241 53.672-122.467 27.452v0l-3.166-3.677c-21.741-28.232-11.072-83.752 29.575-126.003 42.136-43.799 97.241-53.672 122.467-27.452 25.815 26.834 16.086 85.508-26.41 129.68zM318.067 891.128c67.071 21.819 148.361-32.598 180.202-112.782 39.515-99.51 29.846-153.253-64.495-197.217-95.098-44.322-142.117-8.437-183.519 95.825v0l-1.027 2.696-2.177 6.513-1.997 6.943c-1.969 7.776-2.686 14.868-2.266 25.991v0l0.636 10.632 1.176 13.266 2.742 26.283 2.469 24.223c6.083 51.544 21.929 78.881 61.37 95.096v0zM543.461 778.347c32.943 82.949 118.8 138.322 187.087 110.249 41.762-17.169 57.070-46.806 62.346-104.446v0l3.45-33.329 1.962-21.094 0.636-10.632 0.079-8.657-0.494-7.342c-0.393-3.452-1.007-6.659-1.851-9.992v0l-1.997-6.943-2.177-6.513-4.806-11.982c-40.517-97.078-87.521-129.518-179.739-86.539-94.342 43.965-104.011 97.708-64.496 197.219zM458.615 762.599c-25.117 63.252-88.463 104.107-131.21 86.534-24.106-9.91-32.099-25.384-36.079-68.872v0l-3.931-38.116-1.411-15.94-0.416-7.824v-6.192l0.411-5.085 0.818-4.501c0.17-0.731 0.357-1.459 0.561-2.195v0l1.961-6.154 4.037-10.066c31.94-77.328 57.93-94.432 122.396-64.386 64.948 30.267 73.995 57.743 48.976 126.759v0zM714.326 849.134c-42.744 17.572-106.089-23.283-131.21-86.535-32.165-81-26.895-110.288 42.864-142.798 66.77-31.118 92.262-11.662 125.844 72.907v0l1.128 3.094 1.422 4.607 1.020 4.405c0.136 0.746 0.256 1.506 0.359 2.291v0l0.411 5.085c0.034 0.925 0.052 1.897 0.052 2.925v0l-0.207 6.943-1.095 14.128-5.304 51.909c-4.246 37.569-12.683 51.75-35.283 61.041z" />
<glyph unicode="&#xe91c;" glyph-name="spiral" d="M494.933 853.333c256.746 0 465.067-203.792 465.067-455.42 0-11.782-9.551-21.333-21.333-21.333s-21.333 9.551-21.333 21.333c0 227.851-189.011 412.754-422.4 412.754-214.537 0-388.267-169.953-388.267-379.362 0-190.968 158.447-345.971 354.133-345.971 84.967 0 166.427 33.008 226.441 91.717 59.923 58.62 93.559 138.060 93.559 220.862 0 154.085-127.883 279.188-285.834 279.188-139.060-0.212-251.55-110.256-251.766-245.797 0-117.202 97.319-212.406 217.6-212.406 101.43 0 183.467 80.254 183.467 179.014 0 80.319-66.755 145.623-149.333 145.623-63.727 0-115.2-50.354-115.2-112.323-0.089-20.813 8.335-40.828 23.452-55.616 15.208-14.877 35.925-23.222 57.615-23.134 26.024 0 46.933 20.455 46.933 45.449 0 5.617-4.134 10.464-9.832 11.734l-2.968 0.324c-11.782 0-21.333 9.551-21.333 21.333s9.551 21.333 21.333 21.333c30.53 0 55.467-24.395 55.467-54.725 0-48.771-40.219-88.116-89.512-88.116-32.783-0.134-64.29 12.557-87.539 35.3-23.341 22.833-36.42 53.907-36.281 86.207 0 85.654 70.783 154.899 157.867 154.899 105.935 0 192-84.194 192-188.29 0-122.537-101.347-221.681-226.133-221.681-143.638 0-260.267 114.094-260.267 255.106 0.254 159.299 132.001 288.182 294.4 288.43 181.34 0 328.533-143.993 328.533-321.855 0-94.317-38.287-184.74-106.389-251.362-68.011-66.533-160.19-103.884-256.277-103.884-219.043 0-396.8 173.893-396.8 388.638 0 233.186 193.039 422.029 430.933 422.029z" />
<glyph unicode="&#xe91d;" glyph-name="dot-slider" d="M512 942.933c273.344 0 494.933-221.589 494.933-494.933s-221.589-494.933-494.933-494.933c-273.344 0-494.933 221.589-494.933 494.933s221.589 494.933 494.933 494.933zM512 908.8c-254.493 0-460.8-206.307-460.8-460.8s206.307-460.8 460.8-460.8c254.493 0 460.8 206.307 460.8 460.8s-206.307 460.8-460.8 460.8zM512 618.667c94.257 0 170.667-76.41 170.667-170.667s-76.41-170.667-170.667-170.667c-94.257 0-170.667 76.41-170.667 170.667s76.41 170.667 170.667 170.667z" />
<glyph unicode="&#xe91e;" glyph-name="check" d="M895.583 789.135c20.133 19.523 52.282 19.029 71.806-1.105s19.029-52.282-1.105-71.806l-628.402-609.36c-19.697-19.1-51.004-19.1-70.7 0l-209.467 203.12c-20.133 19.523-20.628 51.671-1.105 71.806s51.671 20.628 71.806 1.105l174.117-168.838 593.052 575.078z" />
</font>
</defs>
</svg>
